Текст песни Phunky D - Mosaic 2cd CUE

  • Исполнитель: Phunky D
  • Название песни: Mosaic 2cd CUE
  • Дата добавления: 01.10.2017 | 18:15:09
  • Просмотров: 264
  • 0 чел. считают текст песни верным
  • 0 чел. считают текст песни неверным

Текст песни

REM GENRE House
REM DATE 2006
REM DISCID 7D0CE10A
REM COMMENT "ExactAudioCopy v1.0b4"
PERFORMER "Phuky D"
TITLE "Mosaic 2"
FILE "Phunky D - Mosaic 2.wav" WAVE
TRACK 01 AUDIO
TITLE "Mosaic"
PERFORMER "Phunky D"
FLAGS DCP
INDEX 01 00:00:00
TRACK 02 AUDIO
TITLE "Mosaic"
PERFORMER "Phunky D"
FLAGS DCP
INDEX 01 07:30:19
TRACK 03 AUDIO
TITLE "Mosaic"
PERFORMER "Phunky D"
FLAGS DCP
INDEX 01 13:15:10
TRACK 04 AUDIO
TITLE "Mosaic"
PERFORMER "Phunky D"
FLAGS DCP
INDEX 01 19:52:45
TRACK 05 AUDIO
TITLE "Mosaic"
PERFORMER "Phunky D"
FLAGS DCP
INDEX 01 25:25:13
TRACK 06 AUDIO
TITLE "Mosaic"
PERFORMER "Phunky D"
FLAGS DCP
INDEX 01 30:11:45
TRACK 07 AUDIO
TITLE "Mosaic"
PERFORMER "Phunky D"
FLAGS DCP
INDEX 01 36:00:32
TRACK 08 AUDIO
TITLE "Mosaic"
PERFORMER "Phunky D"
FLAGS DCP
INDEX 01 39:30:34
TRACK 09 AUDIO
TITLE "Mosaic"
PERFORMER "Phunky D"
FLAGS DCP
INDEX 01 45:14:27
TRACK 10 AUDIO
TITLE "Mosaic"
PERFORMER "Phunky D"
FLAGS DCP
INDEX 01 50:00:16

Перевод песни

Дом РЕМ ЖЕНР
REM DATE 2006
REM DISCID 7D0CE10A
REM COMMENT "ExactAudioCopy v1.0b4"
PERFORMER "Phuky D"
НАЗВАНИЕ "Мозаика 2"
ФАЙЛ "Phunky D - Mosaic 2.wav" WAVE
  TRACK 01 AUDIO
    НАЗВАНИЕ "Мозаика"
    PERFORMER "Phunky D"
    FLAGS DCP
    ИНДЕКС 01 00:00:00
  TRACK 02 AUDIO
    НАЗВАНИЕ "Мозаика"
    PERFORMER "Phunky D"
    FLAGS DCP
    ИНДЕКС 01 07:30:19
  TRACK 03 AUDIO
    НАЗВАНИЕ "Мозаика"
    PERFORMER "Phunky D"
    FLAGS DCP
    ИНДЕКС 01 13:15:10
  TRACK 04 AUDIO
    НАЗВАНИЕ "Мозаика"
    PERFORMER "Phunky D"
    FLAGS DCP
    INDEX 01 19:52:45
  TRACK 05 AUDIO
    НАЗВАНИЕ "Мозаика"
    PERFORMER "Phunky D"
    FLAGS DCP
    ИНДЕКС 01 25:25:13
  TRACK 06 AUDIO
    НАЗВАНИЕ "Мозаика"
    PERFORMER "Phunky D"
    FLAGS DCP
    INDEX 01 30:11:45
  TRACK 07 AUDIO
    НАЗВАНИЕ "Мозаика"
    PERFORMER "Phunky D"
    FLAGS DCP
    ИНДЕКС 01 36:00:32
  TRACK 08 AUDIO
    НАЗВАНИЕ "Мозаика"
    PERFORMER "Phunky D"
    FLAGS DCP
    INDEX 01 39:30:34
  TRACK 09 AUDIO
    НАЗВАНИЕ "Мозаика"
    PERFORMER "Phunky D"
    FLAGS DCP
    ИНДЕКС 01 45:14:27
  TRACK 10 AUDIO
    НАЗВАНИЕ "Мозаика"
    PERFORMER "Phunky D"
    FLAGS DCP
    ИНДЕКС 01 50:00:16

Официальное видео

Все тексты Phunky D >>>